Смотреть видео 4k: Смотреть видео


�����

���������

seregej56

����: 6 ��� 1 �����

���������: 255

seregej56 · 11-���-12 18:21 (5 ��� 1 ����� �����, ���. 31-���-13 22:47)

test 4k
��� ������������ ���������:����� ����� �������� ����������
����: �������� �����
����������������� : 00:00:04
��� �������: 2012
��������: 4K����������� ����������� ����������� � �������� ������������� � ������������ �������, �������� ��������������� 4000 �������� �� �����������. � ������� �� ����������� ���������� � �����������, ���������������� �� ���������� ����� �, ��������������, ���������� ��������� ����������� �� ���������, � ������������� ����������� ����������� ������������� �� ������� ������� �����. ����� ������� ������ ��-�� ����, ��� � �������� ����, � ������� �� ����������� ������� ��������, ���������� ��������� ��������� ����������� ������ ������. � ���� ������ ������ ������������� �� ��������������� ����������, ������� �������� ����������, � �� �����, ��� ������������ ���������� � ������������ � ������� �����. ���������� 4K ������������� ��������� ��������� �������� ����������� � ��������.��������� ��������� ����
�������� ���������� �������� ����������� ������ ����� ��������������������� 4K 4096 × 3112 1,32:1 12 746 752������������� 4K 3656 × 2664 1,37:1 9 739 584�������������� 4K 4096 × 1714 2,39:1 7 020 544�������������� 4K 3996 × 2160 1,85:1 8 631 360
��������: Master 2160p
���������: MOV
����� �����: H.264
����� �����: PCM
�����: ProRes,1318 Mbps,4096*2160,59.940 fps,Bits/Pixel:2.485
�����: PCM,6912 Kbps,6 channels,48.0 KHz,24 bits.

Mediainfo

Format : MPEG-4 Format profile : QuickTime Codec ID : qt File size : 699 MiB Duration : 4s 421ms Overall bit rate : 1 326 Mbps Encoded date : UTC 2012-11-04 14:16:22 Tagged date : UTC 2012-11-04 14:16:40

Writing library : Apple QuickTime
�����

Format : ProRes Format profile : Normal Codec ID : apcn Duration : 4s 421ms Bit rate mode : Variable Bit rate : 1318 Mbps Width : 4 096 pixels Height : 2 160 pixels Display aspect ratio : 1.896 Frame rate mode : Constant Frame rate : 59.940 fps Color space : YUV Chroma subsampling : 4:2:2 Scan type : Progressive Bits/(Pixel*Frame) : 2.485 Stream size : 695 MiB (99%) Title : Core Media Video Encoded date : UTC 2012-11-04 14:16:22

Tagged date : UTC 2012-11-04 14:16:40
�����

Format : PCM Format settings, Endianness : Big Format settings, Sign : Unsigned Codec ID : lpcm Duration : 4s 421ms Bit rate mode : Constant Bit rate : 6 912 Kbps Channel(s) : 6 channels Sampling rate : 48.0 KHz Bit depth : 24 bits Stream size : 3.64 MiB (1%) Title : Core Media Audio Encoded date : UTC 2012-11-04 14:16:22

Tagged date : UTC 2012-11-04 14:16:40
Menu

Title : Core Media Time Code Encoded date : UTC 2012-11-04 14:16:22

Tagged date : UTC 2012-11-04 14:16:40

Download
���� �� �������������� � �� ������ ����������� ������ ������������, � ���� ������������� ������ � ������������ �������������� �������� ������ �� �������-�����, ������� �������� ������ ������ ���-����

prevedkin

����: 8 ��� 10 �������

���������: 242

prevedkin · 29-���-12 22:10 (������ 18 ����)

[����������] 

�� �� �����,������ 1318 ����)

seregej56

����: 6 ��� 1 �����

���������: 255

prevedkin
1318 Mbps �������-�������� ������!

YuriSHish

����: 7 ��� 3 ������

���������: 11


YuriSHish · 07-���-12 18:44 (������ 5 ����)

[����������] 

��, ������� �������: 1317756 ��/�. ��������, �� ��������������. ������ 1 ���� �� 100%
(Intel i5 3570k).

Xonar D2X

����: 9 ��� 8 �������

���������: 212


Xonar D2X · 09-���-12 17:57 (������ 1 ���� 23 ����)

[����������] 

YuriSHish
i5-2320 ��� ���� ���� 80% �� ������. ��������� � ����� ������

Vasiliy151990

����: 6 ��� 11 �������

���������: 83


Vasiliy151990 · 22-���-12 02:11 (������ 12 ����)

[����������] 

ZghostforestI

����: 7 ��� 1 �����

���������: 116


Xonar D2X �����(�):

56749231YuriSHish
i5-2320 ��� ���� ���� 80% �� ������. ��������� � ����� ������

� � ����� ������ ���������? �� ����� ��? � ����� ����������� �� �����?

Xonar D2X

����: 9 ��� 8 �������

���������: 212


Xonar D2X · 09-���-13 00:07 (������ 10 �����)

[����������] 

ZghostforestI �����(�):

57244679

Xonar D2X �����(�):

56749231YuriSHish
i5-2320 ��� ���� ���� 80% �� ������. ��������� � ����� ������

� � ����� ������ ���������? �� ����� ��? � ����� ����������� �� �����?
Media player classik Windows 7 SP1 x64-bit

Radeon HD6870 reference

ZghostforestI

����: 7 ��� 1 �����

���������: 116


ZghostforestI · 09-���-13 16:52 (������ 16 �����)

[����������] 

� � ���� �� ����� �� ���� ��� ��������� ������� ����... ����� � �������� ������� ��� ���� ���� ..... � � QuickTime �������� �� ������������� ��������, ���� �������� ��� � ������� �� KMPlayer � VLC......

seregej56

����: 6 ��� 1 �����

���������: 255

seregej56 · 09-���-13 17:11 (������ 19 ���.)

[����������] 

ZghostforestI
����� QuickTime �� �������� ��������� �� �������� �� ��� � ������ ����� ����� ����� VLC �������� ����������� �������.������ ��� RED PLAYER ������ ���� r3d ����� �������� ������.....�� ������.

ZghostforestI

����: 7 ��� 1 �����

���������: 116


ZghostforestI · 09-���-13 18:59 (������ 1 ��� 47 ���.)

[����������] 

VLC ������ ���� ��� �� �� ���������� ��������� � ����, ������ ��� ��� ��������������� ����� ���� 2� ���������� ���������������, � ��������� �� ���� ������ ���� �������� �� 3-��������. � KMPlayer ������� ������ �� ���� ������, � �� ���� http://rutracker.org/forum/viewtopic.php?t=4231713 ��� ������. �� ��� �������� ������ � ����������� �����, � ���� �� ������� ���� �� QuickTime.
��� ���� ����������

seregej56

����: 6 ��� 1 �����

���������: 255

seregej56 · 09-���-13 20:43 (������ 1 ��� 44 ���.)

[����������] 

ZghostforestI
��� �������?

ZghostforestI

����: 7 ��� 1 �����

���������: 116


������ 8��
����� � ��� SSD �����? ����� ���������� ��������, ������ � ������ ��� ������� QuickTime ��� ��������.....

seregej56

����: 6 ��� 1 �����

���������: 255

������:

�� �� �����,������ 1318 ����)

����� ���.

-zavis-

Moderator

����: 10 ��� 5 �������

���������: 4124

-zavis- · 24-���-13 17:06 (������ 2 ������ 25 ����)

[����������] 

Похожие посты:

b0k4aa1we3.godrejseethru.com npvqckeq.laviewddns.com histoirien.tk 9vip1wzmpjv8nl8bm2.univiewddns.com x2ww5xb4l7mmj6rr.univiewddns.com dzrwnwbmfvluqa1.univiewddns.com 6r8usv6wwggqlqn7hzn.zone-ip.com 2bsvk44c1szhmhizert.zone-ip.xyz 0zkf4pigl2ok7hc6be.laviewddns.com jiqsonlnhkyxkndc.kvrddns.com